<?xml version="1.0" standalone="no"?>
<!DOCTYPE svg PUBLIC "-//W3C//DTD SVG 1.1//EN" "http://www.w3.org/Graphics/SVG/1.1/DTD/svg11.dtd" >
<svg xmlns="http://www.w3.org/2000/svg">
<metadata>Generated by IcoMoon</metadata>
<defs>
<font id="educate-icon" horiz-adv-x="1024">
<font-face units-per-em="1024" ascent="960" descent="-64" />
<missing-glyph horiz-adv-x="1024" />
<glyph unicode="&#x20;" horiz-adv-x="512" d="" />
<glyph unicode="&#xe900;" glyph-name="apps" d="M980.529 401.348h-21.736v417.616c0 23.953-19.519 43.471-43.471 43.471h-871.85c-23.967 0-43.471-19.519-43.471-43.471v-607.384c0-23.938 19.504-43.471 43.471-43.471h311.792c-1.623-4.521-2.666-9.361-2.666-14.49v-76.582c0-23.938 19.504-43.471 43.471-43.471h207.707c23.953 0 43.471 19.533 43.471 43.471v76.582c0 5.13-1.029 9.969-2.71 14.49h128.284v-91.073c0-23.938 19.519-43.471 43.471-43.471h164.235c23.953 0 43.471 19.533 43.471 43.471v280.84c0 23.982-19.519 43.471-43.471 43.471zM43.471 833.469h871.85c7.984 0 14.49-6.492 14.49-14.49v-417.602h-113.519c-23.953 0-43.471-19.519-43.471-43.471v-56.252h-743.841v517.325c0 7.97 6.492 14.49 14.49 14.49zM603.776 62.517h-207.707c-7.999 0-14.49 6.506-14.49 14.49h236.688c0-7.97-6.506-14.49-14.49-14.49zM618.266 153.633v-47.601h-236.688v47.601c0 7.984 6.492 14.49 14.49 14.49h207.707c7.984 0 14.49-6.521 14.49-14.49zM603.776 197.104h-560.304c-7.999 0-14.49 6.463-14.49 14.49v61.077h743.841v-75.568h-169.046zM995.019 77.007c0-7.984-6.506-14.49-14.49-14.49h-164.235c-8.028 0-14.49 6.506-14.49 14.49v280.869c0 8.013 6.463 14.49 14.49 14.49h164.235c7.984 0 14.49-6.477 14.49-14.49v-280.869z" />
<glyph unicode="&#xe901;" glyph-name="bell" d="M956.528 116.764c-86.761 86.221-130.737 188.267-130.737 303.309v167.452c0.801 127.665-85.048 212.34-158.813 246.058-21.132 9.663-42.915 17.11-65.052 22.64v10.687c0 51.33-41.761 93.091-93.091 93.091s-93.091-41.761-93.091-93.091v-12.307c-19.94-5.381-39.545-12.4-58.573-21.187-81.529-37.571-164.119-128.13-164.864-245.779v-167.564c0-118.933-42.003-220.979-124.835-303.309-4.934-4.915-6.721-12.158-4.636-18.804s7.727-11.562 14.597-12.753l176.705-30.515c32.917-5.679 63.227-10.333 92.067-14.168 32.507-63.674 96.312-104.522 166.018-104.522 69.725 0 133.548 40.886 166.018 104.597 28.728 3.817 58.889 8.453 91.62 14.113l176.687 30.515c6.87 1.173 12.493 6.107 14.597 12.753 2.104 6.628 0.317 13.871-4.617 18.786zM452.962 866.909c0 30.794 25.060 55.855 55.855 55.855s55.855-25.060 55.855-55.855v-3.389c-37.106 5.325-74.752 5.101-111.709-0.875v4.264zM512.223-26.764c-47.141 0-91.192 23.422-119.473 61.719 41.612-4.282 80.449-6.442 119.268-6.442 38.968 0 77.936 2.16 119.715 6.498-28.3-38.335-72.369-61.775-119.51-61.775zM763.532 91.406c-35.728-6.163-68.478-11.171-99.421-15.118-0.037 0-0.074 0-0.112 0-13.629-1.731-26.885-3.24-39.862-4.543-0.13-0.019-0.279-0.019-0.41-0.037-11.86-1.192-23.459-2.141-34.928-2.979-2.178-0.168-4.338-0.298-6.516-0.447-9.942-0.652-19.773-1.173-29.547-1.545-2.011-0.074-4.022-0.186-6.032-0.242-23.161-0.782-46.006-0.782-69.148-0.019-2.048 0.074-4.133 0.168-6.181 0.261-9.644 0.372-19.363 0.875-29.175 1.527-2.309 0.149-4.617 0.298-6.945 0.465-11.171 0.801-22.472 1.75-34.034 2.886-0.41 0.037-0.801 0.074-1.192 0.112-12.884 1.285-26.047 2.793-39.582 4.506-0.056 0-0.112 0-0.168 0-31.055 3.928-63.916 8.974-99.812 15.155l-142.634 24.65c74.156 84.787 111.709 186.889 111.709 304.035v167.452c0.633 101.19 72.387 179.423 143.192 212.080 21.057 9.7 42.896 16.943 65.108 22.025 0.186 0.037 0.391 0.019 0.577 0.056 45.875 10.314 94.711 10.78 141.126 1.266 0.242-0.056 0.484 0.056 0.726 0.019 24.278-5.064 48.184-12.735 71.215-23.254 68.682-31.409 137.7-109.121 137.048-212.098v-167.564c0-112.323 40.495-216.771 117.537-304.054l-142.541-24.595zM628.289 748.907c-72.145 32.973-160.489 33.010-232.15-0.037-40.867-18.842-110.182-73.97-110.741-161.122-0.056-10.277 8.211-18.655 18.506-18.73 0.037 0 0.074 0 0.112 0 10.221 0 18.562 8.248 18.618 18.506 0.428 68.459 56.208 112.361 89.088 127.535 62.017 28.616 138.631 28.542 201.058 0 9.346-4.282 20.406-0.168 24.688 9.179 4.282 9.365 0.168 20.406-9.179 24.669z" />
<glyph unicode="&#xe902;" glyph-name="charts" d="M1007.66 34.043h-909.617v909.617c0 9.024-7.314 16.34-16.34 16.34s-16.34-7.316-16.34-16.34v-137.985h-49.021c-9.026 0-16.34-7.316-16.34-16.34s7.314-16.34 16.34-16.34h49.021v-121.645h-49.021c-9.026 0-16.34-7.316-16.34-16.34s7.314-16.34 16.34-16.34h49.021v-121.647h-49.021c-9.026 0-16.34-7.316-16.34-16.34s7.314-16.34 16.34-16.34h49.021v-121.645h-49.021c-9.026 0-16.34-7.316-16.34-16.34s7.314-16.34 16.34-16.34h49.021v-121.645h-49.021c-9.026 0-16.34-7.316-16.34-16.34s7.314-16.34 16.34-16.34h49.021v-137.987c0-9.024 7.314-16.34 16.34-16.34h241.474v-49.021c0-9.024 7.314-16.34 16.34-16.34s16.34 7.316 16.34 16.34v49.021h377.647v-49.021c0-9.024 7.314-16.34 16.34-16.34s16.34 7.316 16.34 16.34v49.021h241.474c9.026 0 16.34 7.316 16.34 16.34s-7.314 16.34-16.34 16.34zM168.851 66.723c9.026 0 16.34 7.316 16.34 16.34v381.277h137.985v-381.277c0-9.024 7.314-16.34 16.34-16.34s16.34 7.316 16.34 16.34v226.951h128.909v-226.951c0-9.024 7.314-16.34 16.34-16.34s16.34 7.316 16.34 16.34v243.292c0 9.024-7.314 16.34-16.34 16.34h-145.249v137.985c0 9.024-7.314 16.34-16.34 16.34h-170.666c-9.026 0-16.34-7.316-16.34-16.34v-397.617c0-9.024 7.314-16.34 16.34-16.34zM588.255 66.723c9.026 0 16.34 7.316 16.34 16.34v689.93h128.909v-689.93c0-9.024 7.314-16.34 16.34-16.34s16.34 7.316 16.34 16.34v535.602h137.985v-535.602c0-9.024 7.314-16.34 16.34-16.34s16.34 7.316 16.34 16.34v551.943c0 9.024-7.314 16.34-16.34 16.34h-154.326v137.987c0 9.024-7.314 16.34-16.34 16.34h-161.589c-9.026 0-16.34-7.316-16.34-16.34v-706.27c0-9.024 7.314-16.34 16.34-16.34z" />
<glyph unicode="&#xe903;" glyph-name="checked" d="M970.607 802.67l-602.559-602.554-314.655 314.65-53.393-53.393 368.048-368.043 655.952 655.947z" />
<glyph unicode="&#xe904;" glyph-name="cloud" d="M869.99 512.956c-9.028 153.6-135.646 276.378-288.273 276.378-92.672 0-182.409-45.449-238.012-119.603-1.28 0.666-2.628 1.126-3.925 1.741-3.379 1.638-6.81 3.191-10.308 4.591-1.946 0.768-3.891 1.468-5.854 2.15-3.465 1.212-6.98 2.287-10.564 3.26-1.963 0.529-3.908 1.075-5.888 1.519-3.84 0.87-7.765 1.536-11.725 2.133-1.724 0.256-3.413 0.597-5.154 0.785-5.666 0.631-11.401 1.024-17.22 1.024-84.702 0-153.6-68.898-153.6-153.6 0-2.167 0.137-4.301 0.273-6.434v-0.068c-70.98-38.707-119.74-119.774-119.74-200.926 0-120.883 98.338-219.238 219.221-219.238h418.27c1.775 0 3.533 0.102 5.308 0.239l1.058 0.137 2.287-0.137c1.741-0.137 3.482-0.239 5.274-0.239h167.305c113.186 0 205.278 92.092 205.278 205.278 0 93.679-65.314 177.698-154.010 201.011zM818.722 140.8h-167.305c-1.007 0-1.98 0.085-2.97 0.154l-4.625 0.188-3.379-0.188c-0.973-0.068-1.963-0.154-2.953-0.154h-418.27c-102.059 0-185.088 83.029-185.088 185.105 0 70.895 46.165 144.486 109.79 174.985l9.677 4.625v10.752c0 2.167 0.137 4.369 0.256 6.588l0.154 2.731-0.205 3.584c-0.102 1.382-0.205 2.765-0.205 4.164 0 65.86 53.606 119.467 119.467 119.467 5.274 0 10.479-0.461 15.65-1.143 1.331-0.171 2.662-0.393 3.977-0.614 4.557-0.751 9.045-1.741 13.466-3.021 0.597-0.171 1.212-0.29 1.809-0.461 4.864-1.485 9.609-3.362 14.251-5.478 1.212-0.546 2.389-1.143 3.584-1.724 4.096-2.031 8.107-4.25 11.981-6.758 32.887-21.299 54.75-58.249 54.75-100.267 0-9.438 7.629-17.067 17.067-17.067s17.067 7.629 17.067 17.067c0 47.002-21.265 89.071-54.613 117.265 48.93 64 129.502 104.602 209.664 104.602 132.181 0 241.954-104.704 253.406-237.022-17.442 1.229-43.554 1.86-69.683-2.116-9.318-1.417-15.718-10.121-14.302-19.439 1.28-8.448 8.55-14.507 16.845-14.507 0.853 0 1.724 0.068 2.577 0.205 38.007 5.751 77.619 0.358 79.94 0.034 79.462-15.104 139.366-88.303 139.366-170.411 0-94.362-76.783-171.145-171.145-171.145z" />
<glyph unicode="&#xe905;" glyph-name="comment" d="M922.795 942.933h-650.923c-55.808 0-101.205-45.397-101.205-101.205v-137.728h-69.461c-55.808 0-101.205-45.397-101.205-101.188v-360.806c0-55.808 45.397-101.205 101.205-101.205h103.595v-170.667c0-7.049 4.335-13.38 10.923-15.923 1.997-0.768 4.079-1.143 6.144-1.143 4.71 0 9.335 1.963 12.629 5.581l165.581 182.153h352.051c55.808 0 101.205 45.397 101.205 101.205v137.728h69.461c55.808 0 101.205 45.397 101.205 101.205v360.789c0 55.808-45.397 101.205-101.205 101.205zM819.2 242.005c0-36.983-30.089-67.072-67.072-67.072h-359.595c-4.813 0-9.404-2.031-12.629-5.581l-140.971-155.085v143.599c0 9.421-7.629 17.067-17.067 17.067h-120.661c-36.983 0-67.072 30.089-67.072 67.072v360.806c0 36.966 30.089 67.055 67.072 67.055h650.923c13.875 0 26.761-4.233 37.478-11.469 17.835-12.066 29.594-32.478 29.594-55.603v-360.789zM989.867 480.939c0-36.983-30.089-67.072-67.072-67.072h-69.461v188.928c0 45.329-29.969 83.797-71.134 96.631-3.174 0.99-6.4 1.826-9.694 2.492-6.588 1.365-13.397 2.082-20.378 2.082h-547.328v137.728c0 36.983 30.089 67.072 67.072 67.072h650.923c36.983 0 67.072-30.089 67.072-67.072v-360.789zM204.8 498.944h238.933c9.438 0 17.067 7.646 17.067 17.067s-7.629 17.067-17.067 17.067h-238.933c-9.438 0-17.067-7.646-17.067-17.067s7.629-17.067 17.067-17.067zM665.6 430.677h-460.8c-9.438 0-17.067-7.646-17.067-17.067s7.629-17.067 17.067-17.067h460.8c9.438 0 17.067 7.646 17.067 17.067s-7.629 17.067-17.067 17.067zM665.6 328.277h-460.8c-9.438 0-17.067-7.646-17.067-17.067s7.629-17.067 17.067-17.067h460.8c9.438 0 17.067 7.646 17.067 17.067s-7.629 17.067-17.067 17.067z" />
<glyph unicode="&#xe906;" glyph-name="course" d="M500 336c-11.040 0-20-8.96-20-20s8.96-20 20-20 20 8.96 20 20c0 11.040-8.96 20-20 20zM500 216c-11.040 0-20-8.96-20-20s8.96-20 20-20 20 8.96 20 20c0 11.040-8.96 20-20 20zM964 880h-343.44c-5.26 0-10.414 2.136-14.138 5.864l-56.558 56.558c-11.172 11.172-26.636 17.578-42.424 17.578h-263.44c-33.084 0-60-26.916-60-60v-204h-124c-33.084 0-60-26.916-60-60v-640c0-33.084 26.916-60 60-60h720c33.084 0 60 26.916 60 60v204h124c33.084 0 60 26.916 60 60v560c0 33.084-26.916 60-60 60zM800-4c0-11.028-8.972-20-20-20h-720c-11.028 0-20 8.972-20 20v420h760v-420zM800 456h-760v180c0 11.028 8.972 20 20 20h263.44c5.258 0 10.412-2.136 14.138-5.864l56.56-56.558c11.172-11.172 26.634-17.578 42.422-17.578h343.44c11.028 0 20-8.972 20-20v-100zM984 260c0-11.028-8.972-20-20-20h-124v316c0 33.084-26.916 60-60 60h-343.44c-5.258 0-10.412 2.136-14.138 5.864l-56.56 56.558c-11.172 11.172-26.634 17.578-42.422 17.578h-99.44v204c0 11.028 8.972 20 20 20h263.44c5.26 0 10.414-2.136 14.138-5.864l56.558-56.558c11.172-11.172 26.636-17.578 42.424-17.578h343.44c11.028 0 20-8.972 20-20v-560zM700 336h-120c-11.044 0-20-8.956-20-20s8.956-20 20-20h120c11.044 0 20 8.956 20 20s-8.956 20-20 20zM700 216h-120c-11.044 0-20-8.956-20-20s8.956-20 20-20h120c11.044 0 20 8.956 20 20s-8.956 20-20 20z" />
<glyph unicode="&#xe907;" glyph-name="data-table" d="M725.333 584.533h-426.667c-9.421 0-17.067-7.629-17.067-17.067s7.646-17.067 17.067-17.067h426.667c9.421 0 17.067 7.629 17.067 17.067s-7.646 17.067-17.067 17.067zM298.667 686.933h170.667c9.421 0 17.067 7.629 17.067 17.067s-7.646 17.067-17.067 17.067h-170.667c-9.421 0-17.067-7.629-17.067-17.067s7.646-17.067 17.067-17.067zM725.333 448h-426.667c-9.421 0-17.067-7.629-17.067-17.067s7.646-17.067 17.067-17.067h426.667c9.421 0 17.067 7.629 17.067 17.067s-7.646 17.067-17.067 17.067zM725.333 311.467h-426.667c-9.421 0-17.067-7.629-17.067-17.067s7.646-17.067 17.067-17.067h426.667c9.421 0 17.067 7.629 17.067 17.067s-7.646 17.067-17.067 17.067zM725.333 174.933h-426.667c-9.421 0-17.067-7.629-17.067-17.067s7.646-17.067 17.067-17.067h426.667c9.421 0 17.067 7.629 17.067 17.067s-7.646 17.067-17.067 17.067zM664.132 960h-553.199v-1024h802.133v775.066l-248.934 248.934zM674.133 901.734l180.668-180.668h-180.668v180.668zM145.067-29.867v955.733h494.933v-238.933h238.933v-716.8h-733.867z" />
<glyph unicode="&#xe908;" glyph-name="department" d="M895.998 576.003c0 211.74-172.26 383.997-383.999 383.997-211.736 0-383.997-172.258-383.997-383.997 0-133.724 68.724-251.678 172.692-320.461v-298.203c0-8.234 4.74-15.736 12.178-19.27 2.916-1.386 6.044-2.068 9.156-2.068 4.818 0 9.594 1.632 13.476 4.79l176.494 143.71 176.496-143.7c6.39-5.202 15.204-6.26 22.64-2.718 7.44 3.54 12.178 11.050 12.168 19.29l-0.31 297.961c104.144 68.752 173.008 186.812 173.008 320.669zM525.469 128.564c-7.848 6.388-19.1 6.388-26.944 0l-155.156-126.334v228.846c50.934-25.004 108.166-39.070 168.632-39.070 60.348 0 117.482 14.010 168.344 38.924l0.236-228.658-155.112 126.292zM511.999 234.679c-188.206 0-341.323 153.118-341.323 341.323s153.118 341.323 341.323 341.323 341.325-153.118 341.325-341.323-153.12-341.323-341.325-341.323zM533.333 853.334c0 11.784-9.552 21.338-21.338 21.338-164.686 0-298.669-133.982-298.669-298.669 0-4.504 0.108-9.112 0.318-13.688 0.526-11.438 9.962-20.358 21.296-20.358 0.328 0 0.664 0.006 0.996 0.024 11.774 0.542 20.876 10.524 20.334 22.294-0.182 3.93-0.274 7.876-0.274 11.73 0 141.156 114.838 255.996 255.996 255.996 11.79-0.002 21.342 9.55 21.342 21.334zM810.35 589.697c-0.546 11.772-10.56 20.946-22.3 20.328-11.774-0.544-20.874-10.53-20.328-22.3 0.178-3.844 0.266-7.788 0.266-11.722 0-141.156-114.838-255.996-255.996-255.996-11.782 0-21.338-9.554-21.338-21.338s9.554-21.338 21.338-21.338c164.688 0 298.669 133.982 298.669 298.669 0.002 4.592-0.102 9.198-0.312 13.696zM511.985 398.757c0.004 0 0.006 0 0.010 0 6.742 0 13.092 3.188 17.118 8.596l45.266 60.822 75.092 8.676c6.702 0.772 12.644 4.672 16.022 10.518 3.378 5.842 3.792 12.938 1.118 19.134l-30.038 69.61 30.030 69.37c2.68 6.192 2.27 13.288-1.098 19.136-3.37 5.844-9.308 9.752-16.010 10.536l-75.306 8.794-45.062 60.688c-4.022 5.418-10.372 8.612-17.12 8.616-0.004 0-0.008 0-0.012 0-6.742 0-13.090-3.188-17.114-8.598l-45.262-60.82-75.088-8.676c-6.704-0.772-12.644-4.672-16.024-10.518-3.376-5.842-3.792-12.938-1.116-19.134l30.038-69.61-30.030-69.37c-2.68-6.192-2.272-13.288 1.096-19.136 3.372-5.844 9.31-9.752 16.012-10.536l75.302-8.794 45.060-60.688c4.020-5.418 10.366-8.612 17.116-8.616zM463.911 509.379l-55.95 6.534 22.288 51.494c2.338 5.4 2.342 11.526 0.010 16.93l-22.318 51.72 55.736 6.44c5.846 0.674 11.156 3.736 14.67 8.458l33.632 45.19 33.446-45.046c3.506-4.724 8.812-7.788 14.656-8.474l55.956-6.534-22.29-51.494c-2.338-5.4-2.34-11.526-0.010-16.932l22.322-51.72-55.738-6.44c-5.844-0.674-11.156-3.736-14.668-8.456l-33.636-45.194-33.448 45.048c-3.51 4.73-8.814 7.794-14.658 8.476zM264.505 510.563c-3.22 11.338-15.034 17.97-26.368 14.748-11.336-3.22-17.93-14.966-14.712-26.302l0.166-0.612c2.67-9.396 11.244-15.562 20.558-15.562 1.92 0 3.87 0.262 5.812 0.812 11.336 3.22 17.93 14.966 14.714 26.302l-0.17 0.614zM779.998 625.931c1.732 0 3.496 0.214 5.25 0.66 11.424 2.89 18.344 14.496 15.452 25.918-0.084 0.324-0.17 0.66-0.26 0.986-3.154 11.354-14.914 17.984-26.266 14.83-11.356-3.154-17.998-14.932-14.844-26.286 2.446-9.67 11.13-16.108 20.668-16.108z" />
<glyph unicode="&#xe909;" glyph-name="event" d="M888.259 258.317l-97.124-139.542-68.539 56.251c-7.394 6.109-18.345 4.999-24.42-2.395-6.092-7.411-5.016-18.363 2.412-24.42l83.065-68.191c3.124-2.569 7.012-3.957 11.004-3.957 0.781 0 1.579 0.052 2.378 0.174 4.79 0.66 9.095 3.298 11.871 7.272l107.85 154.971c5.467 7.862 3.541 18.675-4.339 24.159-7.897 5.537-18.692 3.558-24.159-4.322zM902.508 361.585v511.636c0 9.598-7.775 17.356-17.356 17.356h-86.78v52.068c0 9.598-7.775 17.356-17.356 17.356h-121.492c-9.58 0-17.356-7.758-17.356-17.356v-52.068h-381.831v52.068c0 9.598-7.775 17.356-17.356 17.356h-121.492c-9.58 0-17.356-7.758-17.356-17.356v-52.068h-86.78c-9.58 0-17.356-7.758-17.356-17.356v-885.153c0-9.598 7.775-17.356 17.356-17.356h661.33c34.747-21.868 75.707-34.712 119.687-34.712 124.407 0 225.627 101.22 225.627 225.627 0 86.832-49.395 162.261-121.492 199.958zM676.881 925.288h86.78v-104.136h-86.78v104.136zM138.847 925.288h86.78v-104.136h-86.78v104.136zM34.712 855.864h69.424v-52.068c0-9.598 7.775-17.356 17.356-17.356h121.492c9.58 0 17.356 7.758 17.356 17.356v52.068h381.831v-52.068c0-9.598 7.775-17.356 17.356-17.356h121.492c9.58 0 17.356 7.758 17.356 17.356v52.068h69.424v-138.847h-833.085v138.847zM34.712 5.424v676.881h833.085v-306.089c-3.402 1.093-6.873 1.979-10.344 2.933-3.211 0.885-6.422 1.753-9.667 2.499-2.933 0.66-5.901 1.232-8.869 1.77-4.235 0.781-8.487 1.423-12.757 1.961-2.378 0.295-4.738 0.625-7.133 0.85-6.838 0.607-13.729 1.024-20.654 1.024-5.866 0-11.611-0.434-17.356-0.885v209.156h-659.525v-503.322h462.293c0.503-1.527 1.128-3.003 1.649-4.513 1.458-4.217 2.898-8.452 4.617-12.566 0.955-2.308 2.083-4.513 3.124-6.769 1.996-4.408 4.027-8.799 6.3-13.069 1.007-1.857 2.135-3.645 3.193-5.484 2.569-4.495 5.172-8.938 8.053-13.243 1.059-1.579 2.222-3.072 3.315-4.634 3.055-4.339 6.179-8.643 9.563-12.774 1.25-1.527 2.603-2.951 3.888-4.443 2.69-3.124 5.259-6.318 8.123-9.303h-600.897zM699.67 364.206c-1.874-0.903-3.784-1.753-5.623-2.708-3.263-1.701-6.422-3.575-9.58-5.432-2.76-1.614-5.519-3.263-8.209-4.981-2.725-1.77-5.38-3.575-8.018-5.45-3.003-2.117-5.918-4.339-8.817-6.595-2.326-1.822-4.651-3.627-6.89-5.554-3.037-2.569-5.936-5.294-8.834-8.018-1.996-1.892-4.061-3.714-5.988-5.658-3.141-3.193-6.109-6.578-9.060-9.962-1.25-1.441-2.621-2.76-3.853-4.235v98.998h121.492v-23.639c-0.295-0.069-0.573-0.174-0.85-0.243-15.985-3.87-31.293-9.442-45.768-16.523zM582.639 227.597c-0.607-1.996-1.007-4.044-1.562-6.057-1.388-5.033-2.812-10.066-3.853-15.256-0.816-4.009-1.267-8.105-1.857-12.167-0.469-3.28-1.128-6.508-1.475-9.841-0.746-7.48-1.145-15.048-1.145-22.649 0-6.265 0.347-12.6 0.92-18.953 0.104-1.163 0.104-2.343 0.226-3.506 0.278-2.812 0.833-5.537 1.215-8.313 0 0 0-0.017 0-0.017 0.191-1.319 0.26-2.621 0.469-3.922h-106.965v121.492l121.492-0.121c-0.174-0.417-0.278-0.85-0.451-1.267-2.603-6.335-4.981-12.809-7.012-19.421zM156.203 248.407h121.492v-121.492h-121.492v121.492zM156.203 404.61h121.492v-121.492h-121.492v121.492zM746.305 439.322h-121.492v121.492h121.492v-121.492zM590.102 439.322h-121.492v121.492h121.492v-121.492zM590.102 283.119h-121.492v121.492h121.492v-121.492zM312.407 404.61h121.492v-121.492h-121.492v121.492zM433.898 439.322h-121.492v121.492h121.492v-121.492zM277.695 439.322h-121.492v121.492h121.492v-121.492zM312.407 248.407h121.492v-121.492h-121.492v121.492zM798.373-29.288c-39.19 0-75.655 11.906-105.993 32.247-5.918 3.957-11.507 8.261-16.87 12.774-1.874 1.597-3.645 3.298-5.45 4.964-3.419 3.107-6.734 6.3-9.893 9.615-2.031 2.135-3.992 4.304-5.918 6.508-2.846 3.28-5.519 6.665-8.123 10.119-1.666 2.204-3.384 4.339-4.964 6.613-3.836 5.571-7.446 11.299-10.674 17.234-0.746 1.388-1.336 2.846-2.048 4.252-2.534 4.964-4.894 9.997-6.994 15.169-0.903 2.256-1.684 4.565-2.517 6.856-1.631 4.547-3.124 9.164-4.426 13.833-0.295 1.076-0.555 2.152-0.833 3.228-1.961 7.637-3.402 15.221-4.426 22.771-0.069 0.538-0.174 1.076-0.243 1.631-1.007 7.793-1.545 15.516-1.545 23.101 0 6.578 0.33 13.104 1.007 19.577 0.052 0.538 0.191 1.059 0.243 1.597 0.66 5.918 1.527 11.819 2.742 17.634 0.121 0.555 0.312 1.093 0.434 1.649 1.25 5.762 2.725 11.49 4.513 17.148 0.208 0.66 0.503 1.302 0.712 1.961 1.788 5.415 3.766 10.795 6.057 16.072 2.152 4.964 4.478 9.841 7.029 14.579l1.718 2.968c0.694 1.25 1.51 2.43 2.239 3.662 3.020 5.085 6.248 10.014 9.667 14.77 0.85 1.18 1.736 2.343 2.621 3.506 3.124 4.131 6.422 8.105 9.858 11.941 1.198 1.336 2.395 2.69 3.627 3.992 3.402 3.61 6.977 7.029 10.639 10.344 1.302 1.18 2.569 2.395 3.905 3.541 4.304 3.679 8.765 7.133 13.364 10.414 0.729 0.521 1.423 1.093 2.152 1.614 22.649 15.655 48.666 26.381 76.574 31.067l0.364 0.052c10.24 1.718 20.706 2.829 31.449 2.829 6.751 0 13.468-0.364 20.133-1.093 1.041-0.104 2.048-0.347 3.089-0.469 5.693-0.712 11.368-1.562 16.974-2.777 0.694-0.156 1.354-0.364 2.031-0.521 5.97-1.371 11.889-2.968 17.738-4.929 0.399-0.139 0.781-0.295 1.18-0.434 5.988-2.048 11.889-4.391 17.738-7.047 65.987-30.095 112.033-96.534 112.033-173.646 0-105.264-85.652-190.915-190.915-190.915z" />
<glyph unicode="&#xe90a;" glyph-name="form" d="M194.031 815.464h-69.156c-6.817 0-12.349-5.532-12.349-12.349v-854.766c0-6.817 5.532-12.349 12.349-12.349h774.249c6.817 0 12.349 5.532 12.349 12.349v854.766c0 6.817-5.532 12.349-12.349 12.349h-69.156c-6.817 0-12.349-5.532-12.349-12.349v-113.534h-611.239v113.534c0 6.817-5.532 12.349-12.349 12.349zM829.969 664.883c6.817 0 12.349 5.532 12.349 12.349v113.534h44.457v-830.067h-749.55v830.067h44.457v-113.534c0-6.817 5.532-12.349 12.349-12.349 0 0 635.937 0 635.937 0zM642.082 960h-260.144c-6.817 0-12.349-5.532-12.349-12.349v-76.447h-117.723c-6.817 0-12.349-5.532-12.349-12.349v-90.811c0-6.817 5.532-12.349 12.349-12.349h194.051c6.817 0 12.349 5.532 12.349 12.349v78.462h107.448v-78.462c0-6.817 5.532-12.349 12.349-12.349h194.091c6.817 0 12.349 5.532 12.349 12.349v90.811c0 6.817-5.532 12.349-12.349 12.349h-117.723v76.447c0 6.817-5.552 12.349-12.349 12.349zM759.785 846.505v-66.113h-169.392v78.462c0 6.817-5.532 12.349-12.349 12.349h-132.127c-6.817 0-12.349-5.532-12.349-12.349v-78.462h-169.353v66.113h117.723c6.817 0 12.349 5.532 12.349 12.349v76.447h235.446v-76.447c0-6.817 5.532-12.349 12.349-12.349h117.703zM181.682 377.767v-58.782c0-6.817 5.532-12.349 12.349-12.349h635.937c6.817 0 12.349 5.532 12.349 12.349v58.782c0 6.817-5.532 12.349-12.349 12.349h-635.937c-6.817 0-12.349-5.532-12.349-12.349zM206.381 365.418h611.239v-34.084h-611.239v34.084zM829.969 267.829h-635.937c-6.817 0-12.349-5.532-12.349-12.349v-58.861c0-6.817 5.532-12.349 12.349-12.349h635.937c6.817 0 12.349 5.532 12.349 12.349v58.861c0 6.797-5.552 12.349-12.349 12.349zM817.619 208.968h-611.239v34.163h611.239v-34.163zM829.969 145.483h-635.937c-6.817 0-12.349-5.532-12.349-12.349v-58.861c0-6.817 5.532-12.349 12.349-12.349h635.937c6.817 0 12.349 5.532 12.349 12.349v58.861c0 6.817-5.552 12.349-12.349 12.349zM817.619 86.641h-611.239v34.163h611.239v-34.163zM512.010 441.569c53.052 0 96.245 43.213 96.245 96.285 0 53.033-43.173 96.206-96.245 96.206s-96.245-43.173-96.245-96.206c0-53.092 43.173-96.285 96.245-96.285zM512.010 612.403c41.138 0 74.609-33.432 74.609-74.55 0-41.158-33.471-74.629-74.609-74.629s-74.629 33.471-74.629 74.629c0 41.118 33.471 74.55 74.629 74.55z" />
<glyph unicode="&#xe90b;" glyph-name="home" d="M1015.193 492.748l-152.306 141.428v231.696h-175.448v-68.793l-175.448 162.921-503.184-467.252c-7.088-6.597-7.509-17.703-0.912-24.808 6.579-7.088 17.685-7.492 24.808-0.912l58.231 54.073v-585.1h842.149v585.118l58.231-54.073c3.369-3.141 7.667-4.684 11.948-4.684 4.72 0 9.404 1.877 12.843 5.597 6.597 7.088 6.176 18.194-0.912 24.791zM722.528 830.783h105.269v-164.026l-105.269 97.742v66.284zM406.723-28.91v369.545c0 9.071 7.369 16.439 16.439 16.439h177.658c9.071 0 16.439-7.369 16.439-16.439v-369.545h-210.537zM897.976-28.91h-245.627v369.545c0 28.423-23.106 51.529-51.529 51.529h-177.658c-28.423 0-51.529-23.106-51.529-51.529v-369.545h-245.627v582.609l385.985 358.422 385.985-358.404v-582.626z" />
<glyph unicode="&#xe90c;" glyph-name="interface" d="M1020.181 825.368c-3.717 4.569-9.479 6.7-15.224 6.018-1.313-0.068-2.54-0.29-3.819-0.665l-988.556-268.872c-7.263-1.978-12.377-8.49-12.582-16.009-0.188-7.518 4.586-14.287 11.729-16.639l361.718-118.521-32.358-258.83c-0.852-6.819 2.472-13.485 8.422-16.895 2.643-1.517 5.575-2.267 8.49-2.267 3.665 0 7.331 1.176 10.365 3.512l132.381 101.37 116.049-165.796c3.205-4.586 8.422-7.28 13.963-7.28 0.375 0 0.767 0.017 1.159 0.034 5.967 0.409 11.269 3.904 13.997 9.24l376.141 733.085c3.137 6.001 2.387 13.264-1.875 18.515zM901.779 768.358l-512.034-327.126-313.3 102.649 825.334 224.477zM379.977 188.028l23.561 188.437 77.656-110.934-101.217-77.502zM628.543 114.498l-212.254 303.224 547.256 349.63-335.003-652.855z" />
<glyph unicode="&#xe90d;" glyph-name="landing" d="M1024 857.6h-785.067v-119.467h-119.467v-119.467h-119.467v-580.267h785.067v119.467h119.467v119.467h119.467v580.267zM750.933 72.533h-716.8v512h85.333v-426.667h631.467v-85.333zM870.4 192h-716.8v512h85.333v-426.667h631.467v-85.333zM989.867 311.467h-716.8v512h716.8v-512z" />
<glyph unicode="&#xe90e;" glyph-name="library" d="M860.952 960h-593.683c-70.016 0-126.976-56.964-126.976-126.98v-770.042c0-70.018 56.962-126.98 126.98-126.98h593.681c12.568 0 22.758 10.188 22.758 22.758 0 0.482-0.044 0.954-0.072 1.43 0.030 0.476 0.072 0.946 0.072 1.43v975.626c-0.002 12.57-10.194 22.758-22.76 22.758zM244.512-15.23c-33.876 9.878-58.704 41.186-58.704 78.206v672.735c16.532-13.862 36.634-23.578 58.704-27.59v-723.351zM267.269 751.558c-44.918 0-81.462 36.546-81.462 81.462s36.546 81.462 81.462 81.462h496.377c-18.502-22.066-29.672-50.48-29.672-81.462s11.17-59.396 29.672-81.462h-496.377zM690.269 706.040v-133.524l-27.176 20.236c-8.070 6.010-19.128 6.008-27.198-0.010l-27.448-20.468v133.766h81.822zM838.194-18.484h-548.167v724.523h272.905v-179.126c0-8.61 4.858-16.482 12.554-20.342 3.228-1.62 6.722-2.416 10.202-2.416 4.816 0 9.602 1.528 13.61 4.516l50.216 37.448 49.924-37.176c6.904-5.142 16.118-5.946 23.806-2.084 7.692 3.862 12.546 11.732 12.546 20.338v178.844h102.404v-724.525zM838.194 754.814c-33.876 9.876-58.706 41.186-58.706 78.208s24.83 68.328 58.704 78.204v-156.412zM675.747 415.087h-223.276c-12.57 0-22.758-10.188-22.758-22.758 0-12.572 10.192-22.758 22.758-22.758h223.276c12.568 0 22.758 10.188 22.758 22.758s-10.192 22.758-22.758 22.758zM739.347 272.469h-350.477c-12.57 0-22.758-10.188-22.758-22.758s10.188-22.758 22.758-22.758h350.477c12.568 0 22.758 10.188 22.758 22.758s-10.188 22.758-22.758 22.758z" />
<glyph unicode="&#xe90f;" glyph-name="menu" d="M512 960c-282.313 0-512-229.687-512-512s229.687-512 512-512 512 229.687 512 512-229.687 512-512 512zM512-27.429c-262.162 0-475.429 213.285-475.429 475.429s213.266 475.429 475.429 475.429 475.429-213.285 475.429-475.429-213.266-475.429-475.429-475.429zM274.286 649.143h475.429c10.112 0 18.286 8.192 18.286 18.286s-8.174 18.286-18.286 18.286h-475.429c-10.112 0-18.286-8.192-18.286-18.286s8.174-18.286 18.286-18.286zM822.857 393.143h-621.714c-10.112 0-18.286-8.192-18.286-18.286s8.174-18.286 18.286-18.286h621.714c10.112 0 18.286 8.192 18.286 18.286s-8.174 18.286-18.286 18.286zM822.857 539.429h-621.714c-10.112 0-18.286-8.192-18.286-18.286s8.174-18.286 18.286-18.286h621.714c10.112 0 18.286 8.192 18.286 18.286s-8.174 18.286-18.286 18.286zM749.714 246.857h-475.429c-10.112 0-18.286-8.192-18.286-18.286s8.174-18.286 18.286-18.286h475.429c10.112 0 18.286 8.192 18.286 18.286s-8.174 18.286-18.286 18.286z" />
<glyph unicode="&#xe910;" glyph-name="message" d="M829.086 249.751c-4.061 0-8.123 1.486-11.293 4.491l-189.994 178.239c-6.637 6.208-6.967 16.675-0.726 23.312 6.241 6.703 16.642 7 23.345 0.726l189.994-178.239c6.637-6.208 6.967-16.675 0.726-23.312-3.269-3.467-7.627-5.217-12.052-5.217zM194.881 249.751c-4.392 0-8.783 1.75-12.052 5.217-6.241 6.637-5.91 17.104 0.726 23.312l190.060 178.239c6.67 6.208 17.137 5.944 23.345-0.726 6.241-6.637 5.91-17.104-0.726-23.312l-190.060-178.239c-3.17-3.005-7.231-4.491-11.293-4.491zM941.451 84.026h-858.903c-45.501 0-82.549 37.015-82.549 82.549v562.883c0 45.534 37.048 82.549 82.549 82.549h858.903c45.501 0 82.549-37.015 82.549-82.549v-562.883c0-45.534-37.048-82.549-82.549-82.549zM82.549 778.987c-27.307 0-49.529-22.222-49.529-49.529v-562.883c0-27.307 22.222-49.529 49.529-49.529h858.903c27.307 0 49.529 22.222 49.529 49.529v562.883c0 27.307-22.222 49.529-49.529 49.529h-858.903zM512 365.055c-21.958 0-43.916 7.297-60.624 21.859l-423.97 369.851c-6.868 5.977-7.594 16.411-1.618 23.312 6.043 6.868 16.444 7.495 23.312 1.585l423.97-369.818c21.099-18.392 56.76-18.392 77.827 0l423.442 369.224c6.835 5.977 17.236 5.316 23.312-1.585 5.977-6.901 5.283-17.302-1.585-23.312l-423.442-369.224c-16.741-14.595-38.666-21.892-60.624-21.892z" />
<glyph unicode="&#xe911;" glyph-name="miscellanous" d="M885.224 422.094h-399.022v399.022c0 16.124-12.899 29.024-29.024 29.024-251.969 0-457.070-205.101-457.070-457.070s205.101-457.070 457.070-457.070 457.070 205.101 457.070 457.070c0 15.909-13.114 29.024-29.024 29.024zM457.177-5.953c-219.935 0-399.022 179.087-399.022 399.022 0 210.261 163.393 383.113 369.999 397.948v-397.948c0-16.124 12.899-29.024 29.024-29.024h397.948c-14.834-206.606-187.687-369.999-397.948-369.999zM1023.893 504.435c-0.43 110.935-41.063 217.785-114.375 300.987-86.856 98.251-211.551 154.578-342.695 154.578-16.124 0-29.024-12.899-29.024-29.024v-428.046c0-16.124 12.899-29.024 29.024-29.024h428.046c16.124 0 29.024 12.899 29.024 29.024 0 0.43 0 0.86 0 1.505zM595.846 531.739v368.924c103.625-7.525 200.801-55.468 270.028-133.939 58.047-65.572 92.446-148.128 98.896-234.985h-368.924z" />
<glyph unicode="&#xe912;" glyph-name="nav" d="M1002.666 768h-981.332c-11.776 0-21.334-9.558-21.334-21.334s9.558-21.334 21.334-21.334h981.334c11.776 0 21.334 9.558 21.334 21.334s-9.56 21.334-21.336 21.334zM1002.666 469.334h-981.332c-11.776 0-21.334-9.558-21.334-21.334s9.558-21.334 21.334-21.334h981.334c11.776 0 21.334 9.558 21.334 21.334s-9.56 21.334-21.336 21.334zM1002.666 170.666h-981.332c-11.776 0-21.334-9.556-21.334-21.332s9.558-21.334 21.334-21.334h981.334c11.776 0 21.334 9.558 21.334 21.334-0.002 11.776-9.56 21.332-21.336 21.332z" />
<glyph unicode="&#xe913;" glyph-name="pages" d="M1022.585 506.051c1.88 4.543 1.88 9.663 0 14.224-0.95 2.29-2.327 4.357-4.040 6.088l-223.4 223.381c-7.28 7.28-19.046 7.28-26.326 0s-7.28-19.046 0-26.326l191.637-191.637h-290.183v409.6c0 10.296-8.322 18.618-18.618 18.618h-633.018c-0.596 0-1.117-0.279-1.694-0.335-1.043-0.093-1.955-0.335-2.942-0.596-1.75-0.465-3.314-1.098-4.822-2.011-0.484-0.298-1.080-0.298-1.527-0.633-0.577-0.428-1.024-0.968-1.545-1.434-0.317-0.298-0.652-0.559-0.95-0.875-1.415-1.527-2.569-3.221-3.426-5.083-0.168-0.372-0.261-0.745-0.41-1.117-0.782-2.085-1.303-4.264-1.303-6.535v-856.436c0-2.327 0.54-4.524 1.341-6.609 0.261-0.689 0.652-1.266 0.987-1.918 0.689-1.322 1.471-2.532 2.458-3.649 0.54-0.596 1.080-1.136 1.676-1.676 1.080-0.95 2.29-1.731 3.593-2.42 0.689-0.372 1.322-0.763 2.067-1.043 0.317-0.112 0.559-0.335 0.875-0.447l409.6-130.327c1.825-0.559 3.724-0.856 5.623-0.856 3.91 0 7.764 1.229 10.985 3.575 4.803 3.5 7.633 9.086 7.633 15.043v111.709h204.8c10.296 0 18.618 8.322 18.618 18.618v409.6h290.183l-191.637-191.637c-7.28-7.28-7.28-19.046 0-26.326 3.631-3.631 8.397-5.455 13.163-5.455s9.533 1.825 13.163 5.455l223.4 223.4c1.713 1.713 3.091 3.779 4.040 6.070zM409.619-19.931l-372.364 118.486v817.375l372.364-118.486v-817.375zM633.037 103.564h-186.182v707.491c0 8.118-5.25 15.286-12.977 17.743l-295.322 93.966h494.48v-819.2zM379.29 381.514l-93.091 37.236c-9.477 3.817-20.387-0.801-24.204-10.389-3.817-9.551 0.838-20.387 10.389-24.204l93.091-37.236c2.253-0.912 4.599-1.322 6.907-1.322 7.373 0 14.373 4.413 17.296 11.711 3.798 9.551-0.856 20.387-10.389 24.204z" />
<glyph unicode="&#xe914;" glyph-name="professor" d="M101.836 68.522c2.286 0 4.59 0.46 6.81 1.434 54.442 23.706 146.38 36.044 273.356 36.694l12.322-24.678c4.232-8.432 14.49-11.878 22.904-7.628 8.43 4.216 11.862 14.456 7.628 22.886l-17.050 34.134c-2.902 5.786-8.806 9.438-15.274 9.438-139.076 0-236.408-12.936-297.524-39.544-8.636-3.772-12.578-13.824-8.824-22.476 2.802-6.42 9.066-10.26 15.652-10.26zM989.866 38.4h-34.134v85.334c0 4.522-1.81 8.874-5 12.066l-102.536 102.52c3.208 6.674 5.138 14.062 5.138 21.948 0 28.228-22.972 51.2-51.2 51.2s-51.2-22.972-51.2-51.2 22.972-51.2 51.2-51.2c7.884 0 15.258 1.928 21.93 5.12l97.536-97.518v-78.27h-887.466c-18.826 0-34.134-15.308-34.134-34.134v-51.2c0-9.42 7.646-17.066 17.066-17.066s17.066 7.646 17.066 17.066v51.2h955.734v-51.2c0-9.42 7.628-17.066 17.066-17.066s17.066 7.646 17.066 17.066v51.2c0.002 18.826-15.324 34.134-34.132 34.134zM802.134 243.2c-9.42 0-17.066 7.662-17.066 17.066s7.646 17.066 17.066 17.066 17.066-7.662 17.066-17.066-7.646-17.066-17.066-17.066zM243.66 449.502c12.442-32.392 53.606-136.84 83.474-181.64l2.696-4.078c21.914-33.228 58.572-88.848 182.17-88.848 123.58 0 160.256 55.62 182.17 88.848l2.696 4.078c29.866 44.8 71.014 149.248 83.474 181.64 22.29 5.546 38.86 25.72 38.86 49.698v68.266c0 22.254-14.268 41.234-34.134 48.282v88.252c0 67.38-35.482 191.846-166.724 203.862-0.256 8.056-2.918 14.54-5.888 19.336-16.776 27.118-63.88 32.802-100.454 32.802-303.684 0-307.2-287.232-307.2-290.134 0-9.42 7.628-17.050 17.032-17.050h0.034c9.404 0 17.032 7.612 17.066 17.032 0.034 10.444 3.874 256.018 273.066 256.018 48.264 0 67.602-10.444 71.424-16.622 0.53-0.87 1.98-3.208-1.366-9.882-2.646-5.29-2.356-11.572 0.75-16.606 3.124-5.018 8.602-8.090 14.524-8.090 151.314 0 153.582-163.72 153.6-170.666v-102.4c0-9.42 7.628-17.066 17.066-17.066 9.42 0 17.066-7.662 17.066-17.066v-68.268c0-9.404-7.646-17.066-17.066-17.066-7.116 0-13.482-4.42-15.992-11.076-0.494-1.348-50.892-135.288-83.542-184.252l-2.798-4.232c-20.446-31.028-48.47-73.506-153.668-73.506-105.216 0-133.222 42.478-153.668 73.506l-2.798 4.232c-32.648 48.964-83.046 182.904-83.558 184.252-2.492 6.656-8.858 11.076-15.974 11.076-9.404 0-17.066 7.662-17.066 17.066v68.266c0 4.626 1.844 8.824 4.846 11.896 6.196-13.91 18.842-26.42 40.090-28.536l58.402-43.794c4.558-33.244 32.838-59.032 67.33-59.032h34.134c37.648 0 68.266 30.618 68.266 68.266 0-37.648 30.618-68.266 68.266-68.266h34.134c34.474 0 62.788 25.788 67.328 59.050l62.378 46.762c7.544 5.65 9.080 16.35 3.414 23.894-5.65 7.544-16.35 9.096-23.894 3.414l-43.502-32.632c-6.502 20.804-25.72 36.044-48.658 36.044h-68.266c-28.228 0-51.2-22.972-51.2-51.2 0 28.228-22.972 51.2-51.2 51.2h-68.266c-22.92 0-42.138-15.24-48.656-36.044l-32.564 24.422c13.432 32.46 25.6 80.47 29.048 114.176 53.794 0.956 209.426 7.526 278.664 50.74 15.702-60.62 66.1-111.634 68.642-114.16 6.672-6.672 17.46-6.672 24.132 0 6.672 6.674 6.672 17.46 0 24.132-0.632 0.632-63.266 63.966-63.266 124.468 0 7.662-5.12 14.404-12.51 16.452-7.356 2.048-15.258-1.092-19.182-7.662-24.85-41.386-186.044-59.99-292.574-59.99-9.42 0-17.066-7.646-17.066-17.066 0-27.7-13.090-83.030-27.016-117.078-5.444 3.276-6.98 9.386-7.116 14.678 0 9.42-7.646 17.066-17.066 17.066-28.228 0-51.2-22.972-51.2-51.2v-68.266c-0.004-23.978 16.568-44.152 38.856-49.698zM546.134 533.334c0 9.404 7.646 17.066 17.066 17.066h68.266c9.42 0 17.066-7.662 17.066-17.066v-17.066c0-18.824-15.308-34.134-34.134-34.134h-34.134c-18.824 0-34.134 15.308-34.134 34.134v17.066zM375.466 533.334c0 9.404 7.662 17.066 17.066 17.066h68.268c9.404 0 17.066-7.662 17.066-17.066v-17.066c0-18.824-15.308-34.134-34.134-34.134h-34.132c-18.824 0-34.134 15.308-34.134 34.134v17.066zM597.316 345.548c0.018 9.404-7.594 17.066-16.998 17.118-0.324 0-30.84 0.342-60.69 15.274-4.796 2.39-10.462 2.39-15.258 0-29.85-14.934-60.382-15.274-60.638-15.274-9.42 0-17.066-7.646-17.066-17.066s7.646-17.066 17.066-17.066c1.45 0 33.69 0.188 68.266 15.308 34.56-15.12 66.816-15.308 68.266-15.308 9.406 0 17.018 7.612 17.052 17.014zM631.416 140.1c-6.382-0.034-12.236-3.618-15.156-9.318l-17.066-33.416c-4.284-8.396-0.938-18.688 7.442-22.972 2.474-1.262 5.138-1.86 7.748-1.86 6.212 0 12.202 3.396 15.224 9.302l12.306 24.132c93.286-0.256 168.414-7.236 223.47-20.754 9.182-2.27 18.398 3.344 20.634 12.492 2.252 9.164-3.328 18.398-12.492 20.65-59.77 14.696-140.836 22.342-242.11 21.744zM494.934 123.734v-34.134c0-9.42 7.646-17.066 17.066-17.066s17.066 7.646 17.066 17.066v34.134c0 9.42-7.646 17.066-17.066 17.066s-17.066-7.646-17.066-17.066zM494.934 311.466c-9.42 0-17.066-7.646-17.066-17.066s7.646-17.066 17.066-17.066h34.134c9.438 0 17.066 7.646 17.066 17.066s-7.628 17.066-17.066 17.066h-34.134z" />
<glyph unicode="&#xe915;" glyph-name="project" d="M40.24-40.894c0-11.112-9.008-20.12-20.12-20.12s-20.12 9.008-20.12 20.12c0 11.112 9.008 20.12 20.12 20.12s20.12-9.008 20.12-20.12zM554.091 469.383c0-11.090-8.99-20.080-20.080-20.080s-20.080 8.99-20.080 20.080c0 11.090 8.99 20.080 20.080 20.080s20.080-8.99 20.080-20.080zM796.96 723.936c-16.142 16.144-37.604 25.032-60.432 25.032s-44.292-8.892-60.432-25.032c-33.322-33.324-33.322-87.544 0-120.866 16.664-16.662 38.544-24.99 60.432-24.99 21.882 0 43.772 8.332 60.432 24.99 33.322 33.324 33.322 87.544 0 120.866zM768.566 631.467c-17.666-17.664-46.412-17.664-64.074 0-17.666 17.664-17.666 46.408 0 64.074 8.558 8.558 19.934 13.27 32.036 13.27s23.478-4.712 32.036-13.27c17.666-17.666 17.666-46.41 0.002-64.074zM250.818 137.098c-9.928 4.944-21.98 0.902-26.924-9.024l-23.916-48.030c-10.4-20.882-31.316-34.846-54.592-36.438l-27.816-1.904c-4.702-0.314-7.794 2.028-9.224 3.458s-3.778 4.528-3.458 9.226l1.904 27.814c1.594 23.274 15.558 44.192 36.438 54.592l48.028 23.916c9.928 4.944 13.968 16.998 9.024 26.924-4.942 9.926-16.996 13.968-26.924 9.024l-48.028-23.916c-33.584-16.724-56.040-50.364-58.604-87.796l-1.904-27.814c-1.028-15.014 4.484-29.726 15.124-40.366 9.796-9.796 23.046-15.248 36.806-15.248 1.182 0 2.372 0.040 3.56 0.122l27.816 1.904c37.432 2.562 71.072 25.016 87.796 58.604l23.916 48.028c4.944 9.928 0.904 21.98-9.022 26.924zM1010.142 943.64c-9.422 9.282-22.402 14.136-35.586 13.278l-18.696-1.192c-167.638-10.702-324.525-91.62-430.431-222.008l-44.008-54.178-115.166 3.382c-0.196 0.006-0.394 0.008-0.588 0.008-91.336 0-177.206-35.568-241.792-100.152l-117.956-117.958c-5.61-5.61-7.392-14-4.544-21.404 2.848-7.406 9.788-12.442 17.712-12.846l249.688-12.828-10.18-12.534c-5.13-6.318-5.942-15.106-2.052-22.254 3.912-7.192 8.012-14.27 12.288-21.234l-59.212-70.294c-5.062-6.010-6.152-14.422-2.794-21.526 12.934-27.33 30.1-51.886 51.028-72.986 21.436-21.616 46.502-39.292 74.498-52.542 2.736-1.296 5.67-1.93 8.586-1.93 4.522 0 9.006 1.528 12.654 4.486 12.756 10.348 27.462 22.622 41.686 34.49 10.138 8.46 20.51 17.114 30.204 25.094 5.786-3.482 11.644-6.858 17.59-10.092 3.008-1.636 6.306-2.442 9.592-2.442 4.372 0 8.716 1.424 12.312 4.216l13.686 10.62 12.884-250.74c0.408-7.924 5.442-14.864 12.846-17.712 2.344-0.9 4.78-1.34 7.2-1.34 5.23 0 10.366 2.046 14.202 5.884l117.958 117.958c64.586 64.586 100.152 150.454 100.152 241.792v109.99l46.534 36.11c139.458 108.22 224.392 271.409 233.024 447.725l0.478 9.772c0.652 13.208-4.38 26.104-13.798 35.388zM66.246 468.355l86.024 86.024c56.93 56.93 132.606 88.314 213.106 88.392l84.17-2.472-149.42-183.96-233.88 12.016zM369.549 212.251c-10.482-8.744-21.228-17.712-31.2-25.914-19.288 10.446-36.736 23.48-51.984 38.856-14.768 14.89-27.338 31.844-37.474 50.52l43.352 51.466c13.108-17.586 27.456-34.244 42.956-49.85 0.012-0.012 0.024-0.022 0.036-0.034 0.004-0.004 0.008-0.010 0.012-0.014 0.006-0.006 0.012-0.010 0.018-0.016 17.186-17.296 35.672-33.168 55.282-47.522-6.924-5.748-14.018-11.668-20.998-17.492zM703.751 304.655c0-80.61-31.39-156.394-88.392-213.396l-86.024-86.024-12.004 233.584 186.418 144.66v-78.824zM983.358 900.442c-8.058-164.594-87.346-316.935-217.534-417.961l-314.921-244.378c-26.116 15.26-50.458 33.278-72.736 53.692l106.172 106.172c7.84 7.84 7.84 20.556 0 28.398-7.842 7.842-20.556 7.842-28.398 0l-106.072-106.072c-19.502 21.59-36.774 45.082-51.48 70.208l258.213 317.899c98.864 121.718 245.32 197.258 401.815 207.246l18.696 1.192c2.45 0.152 4.090-1.064 4.846-1.808 0.754-0.742 2-2.356 1.88-4.818l-0.48-9.77z" />
<glyph unicode="&#xe916;" glyph-name="search" d="M999.602-31.269l-287.271 298.755c73.273 73.485 118.667 174.791 118.667 286.517 0 223.878-182.118 405.996-405.996 405.996s-405.996-182.118-405.996-405.996 182.118-405.996 405.996-405.996c98.27 0 188.46 35.128 258.755 93.418l287.967-299.49c3.789-3.963 8.855-5.935 13.939-5.935 4.833 0 9.647 1.798 13.398 5.394 7.695 7.405 7.927 19.642 0.541 27.337zM425.001 186.674c-202.553 0-367.33 164.776-367.33 367.33s164.776 367.33 367.33 367.33 367.33-164.776 367.33-367.33-164.796-367.33-367.33-367.33z" />
<glyph unicode="&#xe917;" glyph-name="settings" d="M971.283 561.778h-95.801c-15.398 0-28.084 8.476-33.982 22.699s-2.901 29.203 7.964 40.088l67.736 67.717c9.956 9.956 15.436 23.211 15.436 37.281 0 14.089-5.48 27.326-15.436 37.3l-86.338 86.338c-19.911 19.911-54.632 19.949-74.581 0l-67.717-67.717c-10.885-10.866-25.903-13.9-40.088-7.983-14.222 5.897-22.699 18.584-22.699 33.982v95.801c0 29.070-23.647 52.717-52.717 52.717h-122.121c-29.070 0-52.717-23.647-52.717-52.717v-95.801c0-15.398-8.476-28.084-22.699-33.982-14.184-5.935-29.203-2.882-40.088 7.983l-67.717 67.717c-19.949 19.949-54.67 19.911-74.581 0l-86.338-86.338c-9.956-9.956-15.436-23.211-15.436-37.3 0-14.071 5.48-27.307 15.436-37.281l67.736-67.717c10.866-10.885 13.843-25.865 7.964-40.088s-18.584-22.699-33.982-22.699h-95.801c-29.070 0-52.717-23.647-52.717-52.717v-122.103c0-29.089 23.647-52.736 52.717-52.736h95.801c15.398 0 28.084-8.476 33.982-22.699s2.901-29.203-7.964-40.088l-67.736-67.717c-9.956-9.956-15.436-23.211-15.436-37.281 0-14.089 5.48-27.326 15.436-37.3l86.338-86.338c19.93-19.93 54.632-19.968 74.581 0l67.717 67.736c10.885 10.866 25.847 13.862 40.088 7.964 14.222-5.897 22.699-18.584 22.699-33.982v-95.801c0-29.070 23.647-52.717 52.717-52.717h122.103c29.070 0 52.717 23.647 52.717 52.717v95.801c0 15.398 8.476 28.084 22.699 33.982 14.241 5.916 29.203 2.901 40.088-7.964l67.717-67.736c19.949-19.949 54.67-19.911 74.581 0l86.338 86.338c9.956 9.956 15.436 23.211 15.436 37.3 0 14.071-5.48 27.307-15.436 37.281l-67.736 67.717c-10.866 10.885-13.843 25.865-7.964 40.088s18.603 22.699 34.001 22.699h95.801c29.070 0 52.717 23.647 52.717 52.717v122.121c0 29.070-23.647 52.717-52.717 52.717zM986.074 386.939c0-8.154-6.637-14.791-14.791-14.791h-95.801c-30.796 0-57.249-17.673-69.025-46.118-11.795-28.444-5.594-59.657 16.194-81.427l67.736-67.717c5.784-5.784 5.784-15.17 0-20.935l-86.338-86.338c-5.765-5.765-15.151-5.803-20.935 0l-67.717 67.736c-21.788 21.788-52.983 27.951-81.427 16.194-28.444-11.776-46.118-38.229-46.118-69.025v-95.801c0-8.154-6.637-14.791-14.791-14.791h-122.121c-8.154 0-14.791 6.637-14.791 14.791v95.801c0 30.796-17.673 57.249-46.118 69.025-9.538 3.963-19.361 5.897-29.070 5.897-19.228 0-37.869-7.585-52.357-22.073l-67.717-67.736c-5.803-5.803-15.189-5.765-20.935 0l-86.338 86.338c-5.784 5.784-5.784 15.17 0 20.935l67.736 67.717c21.769 21.769 27.989 52.983 16.194 81.427-11.776 28.425-38.229 46.099-69.025 46.099h-95.801c-8.154 0-14.791 6.637-14.791 14.791v122.121c0 8.154 6.637 14.791 14.791 14.791h95.801c30.796 0 57.249 17.673 69.025 46.118 11.795 28.444 5.594 59.657-16.194 81.427l-67.736 67.717c-5.784 5.784-5.784 15.17 0 20.935l86.338 86.338c5.765 5.784 15.151 5.784 20.935 0l67.717-67.717c21.751-21.751 52.945-27.989 81.427-16.194 28.444 11.757 46.118 38.21 46.118 69.006v95.801c0 8.154 6.637 14.791 14.791 14.791h122.103c8.173 0 14.81-6.637 14.81-14.791v-95.801c0-30.796 17.673-57.249 46.118-69.025 28.482-11.795 59.657-5.575 81.427 16.194l67.717 67.717c5.803 5.784 15.189 5.784 20.935 0l86.338-86.338c5.784-5.784 5.784-15.17 0-20.935l-67.736-67.717c-21.769-21.769-27.989-52.983-16.194-81.427 11.776-28.444 38.229-46.118 69.025-46.118h95.801c8.154 0.019 14.791-6.618 14.791-14.772v-122.121zM512 618.667c-94.113 0-170.667-76.553-170.667-170.667s76.553-170.667 170.667-170.667 170.667 76.553 170.667 170.667-76.553 170.667-170.667 170.667zM512 315.259c-73.178 0-132.741 59.563-132.741 132.741s59.563 132.741 132.741 132.741 132.741-59.563 132.741-132.741-59.563-132.741-132.741-132.741z" />
<glyph unicode="&#xe918;" glyph-name="student" d="M614.402 448.011c34.474 0 62.787 25.788 67.327 59.049l62.377 46.762c7.544 5.65 9.080 16.35 3.414 23.894-5.65 7.544-16.35 9.096-23.894 3.414l-43.502-32.632c-6.502 20.804-25.72 36.044-48.656 36.044h-68.265c-28.228 0-51.2-22.972-51.2-51.2 0 28.228-22.972 51.2-51.2 51.2h-68.269c-22.938 0-42.154-15.24-48.658-36.044l-43.502 32.632c-7.526 5.65-18.244 4.114-23.894-3.414-5.666-7.544-4.13-18.244 3.414-23.894l62.377-46.762c4.54-33.262 32.836-59.049 67.327-59.049h34.134c37.65 0 68.265 30.618 68.265 68.265 0-37.65 30.618-68.265 68.265-68.265h34.136zM477.869 516.276c0-18.824-15.326-34.134-34.134-34.134h-34.134c-18.808 0-34.134 15.308-34.134 34.134v17.066c0 9.404 7.646 17.066 17.066 17.066h68.265c9.42 0 17.066-7.662 17.066-17.066v-17.066zM546.135 516.276v17.066c0 9.404 7.646 17.066 17.066 17.066h68.265c9.42 0 17.066-7.662 17.066-17.066v-17.066c0-18.824-15.326-34.134-34.134-34.134h-34.134c-18.804 0.002-34.13 15.31-34.13 34.134zM1023.486-42.77l-17.442 69.511c-8.756 26.316-60.569 110.967-357.509 113.271v17.868c0 9.42-7.628 17.066-17.066 17.066s-17.066-7.646-17.066-17.066v-34.134c0-0.12 0.068-0.222 0.068-0.342 0-0.102-0.068-0.188-0.068-0.308-0.068-10.41-3.498-101.751-102.399-101.751s-102.331 91.971-102.399 102.399v34.134c0 9.42-7.628 17.066-17.066 17.066s-17.066-7.646-17.066-17.066v-17.238c-221.152-1.738-331.897-37.032-357.889-115.145l-17.066-68.265c-2.304-9.148 3.276-18.414 12.424-20.702 9.114-2.322 18.398 3.276 20.684 12.408l16.692 67.019c19.832 59.477 126.633 89.189 326.277 90.675 6.196-48.862 39.406-119.415 135.405-119.415 95.947 0 129.177 70.125 135.405 118.731 233.914-1.724 315.235-56.933 325.903-88.745l17.066-68.265c1.946-7.748 8.892-12.92 16.538-12.92 1.366 0 2.764 0.154 4.148 0.512 9.148 2.288 14.712 11.554 12.426 20.702zM117.271 874.811l392.53-51.2c0.734-0.086 1.468-0.136 2.202-0.136s1.468 0.052 2.202 0.136l373.26 48.69v-59.255c-10.7-12.032-34.134-42.052-34.134-74.905 0-37.564 30.618-51.2 51.2-51.2s51.2 13.636 51.2 51.2c0 32.854-23.432 62.873-34.134 74.905v78.695c0 2.252-0.478 4.386-1.28 6.366-0.29 0.7-0.786 1.246-1.16 1.894-0.666 1.194-1.332 2.372-2.252 3.362-0.598 0.632-1.314 1.058-1.996 1.57-0.972 0.786-1.928 1.536-3.054 2.082-0.836 0.41-1.724 0.58-2.628 0.836-0.836 0.256-1.588 0.7-2.492 0.82l-392.53 51.2c-1.468 0.17-2.936 0.17-4.404 0l-392.53-51.2c-8.5-1.11-14.864-8.362-14.864-16.93s6.366-15.822 14.864-16.93zM921.599 738.142c0-13.62-9.234-16.81-17.066-17.066-7.834 0.256-17.066 3.448-17.066 17.066 0 14.166 8.704 29.97 17.066 41.626 8.362-11.658 17.066-27.462 17.066-41.626zM512.003 925.736l260.587-33.996-260.587-33.998-260.589 33.998 260.589 33.996zM551.341 340.8c-0.546-0.494-13.414-12.254-39.338-12.254-25.548 0-38.418 11.418-39.304 12.236-6.638 6.502-17.34 6.452-23.962-0.17-6.674-6.674-6.674-17.46 0-24.132 2.252-2.252 23.21-22.068 63.265-22.068s61.013 19.814 63.265 22.068c6.588 6.588 6.57 17.134 0.102 23.826-6.502 6.688-17.22 6.876-24.030 0.494zM238.938 615.757c-19.866-7.048-34.134-26.026-34.134-48.282v-68.265c0-23.808 16.332-43.878 38.4-49.578 9.13-26.932 34.356-99.959 48.742-128.715 27.102-54.219 103.953-145.971 220.056-145.971s192.954 91.749 220.056 145.971c14.388 28.758 39.612 101.785 48.742 128.715 22.068 5.7 38.4 25.77 38.4 49.578v68.265c0 22.254-14.268 41.234-34.134 48.282v19.984c0 9.42-7.628 17.066-17.066 17.066s-17.066-7.646-17.066-17.066v-34.134c0-9.42 7.628-17.066 17.066-17.066 9.42 0 17.066-7.662 17.066-17.066v-68.265c0-9.404-7.646-17.066-17.066-17.066-7.356 0-13.876-4.694-16.18-11.674-0.358-1.006-33.962-101.631-50.278-134.297-2.612-5.188-64.989-127.095-189.54-127.095s-186.93 121.907-189.54 127.095c-16.332 32.666-49.92 133.289-50.278 134.297-2.322 6.98-8.824 11.674-16.18 11.674-9.42 0-17.066 7.662-17.066 17.066v68.265c0 9.404 7.646 17.066 17.066 17.066 9.438 0 17.066 7.646 17.066 17.066v34.136c0 9.42-7.628 17.066-17.066 17.066s-17.066-7.646-17.066-17.066v-19.986zM256.005 840.541c-9.438 0-17.066-7.646-17.066-17.066v-119.465c0-6.468 3.652-12.374 9.438-15.274 4.334-2.15 107.791-52.991 263.625-52.991s259.291 50.842 263.625 52.991c5.786 2.902 9.438 8.806 9.438 15.274v119.463c0 9.42-7.628 17.066-17.066 17.066s-17.066-7.646-17.066-17.066v-108.423c-28.228-11.964-117.555-45.176-238.932-45.176s-210.704 33.212-238.932 45.176v108.423c0 9.422-7.628 17.068-17.066 17.068z" />
<glyph unicode="&#xe919;" glyph-name="star" d="M512 152.421l316.416-190.821-83.713 359.884 279.297 242.023-368.178 31.591-143.822 339.301-143.82-339.301-368.18-31.591 279.297-242.023-83.713-359.884z" />
<glyph unicode="&#xe91a;" glyph-name="star-half" d="M1024 563.507l-368.178 31.591-143.822 339.301-143.82-339.301-368.18-31.591 279.297-242.023-83.713-359.884 316.416 190.874 316.416-190.823-83.711 359.884 279.295 241.973zM512 248.525v476.212l87.552-206.643 224.254-19.251-170.086-147.354 50.995-219.188-192.715 116.224z" />
<glyph unicode="&#xe91b;" glyph-name="danger" d="M761.104 599.922c-68.609 85.497-140.384 175.216-138.273 338.822 0 8.444-4.222 14.777-11.611 18.999-7.389 3.167-15.833 3.167-22.166-1.056-115.052-82.331-217.437-262.825-187.883-482.373-40.11 23.221-64.387 62.276-91.83 103.441-8.444 13.722-16.888 27.444-26.388 40.11-4.222 5.278-10.555 9.5-17.944 8.444-7.389 0-13.722-4.222-16.888-9.5-54.887-85.497-110.83-188.938-110.83-300.823 0-220.604 155.162-379.987 369.432-379.987 216.382 0 379.987 163.606 379.987 379.987 0 127.718-63.331 206.882-125.607 283.935zM506.724-21.779c-189.994 0-327.211 142.495-327.211 337.767 0 89.719 41.165 176.272 87.608 251.214 2.111-4.222 5.278-7.389 7.389-11.611 28.499-44.332 56.998-88.664 105.552-117.163 13.722-8.444 30.61-8.444 44.332 0s21.11 24.277 18.999 41.165c-25.332 180.494 47.498 332.489 138.273 414.82 10.555-151.995 82.331-241.714 146.717-321.934 62.276-77.053 116.107-143.551 116.107-256.491 0-192.105-145.662-337.767-337.767-337.767zM791.714 379.319c-11.611 0-21.11-9.5-21.11-21.11 0-69.664-17.944-132.996-54.887-188.938-6.333-9.5-3.167-23.221 6.333-29.555 3.167-2.111 7.389-3.167 11.611-3.167 7.389 0 13.722 3.167 17.944 9.5 40.11 63.331 61.22 134.051 61.22 212.16 0 11.611-9.5 21.11-21.11 21.11zM705.162 120.716c-8.444 7.389-22.166 6.333-29.555-2.111-5.278-6.333-12.666-12.666-20.055-18.999-8.444-7.389-9.5-21.11-2.111-29.555 4.222-5.278 10.555-7.389 15.833-7.389s9.5 2.111 13.722 5.278c8.444 7.389 16.888 14.777 24.277 23.221s6.333 22.166-2.111 29.555z" />
<glyph unicode="&#xe91c;" glyph-name="info" d="M874.038 810.036c-96.704 96.708-225.276 149.964-362.038 149.964s-265.334-53.256-362.036-149.964c-96.708-96.702-149.964-225.274-149.964-362.036s53.256-265.334 149.964-362.038c96.702-96.706 225.274-149.962 362.036-149.962s265.334 53.256 362.038 149.962c96.706 96.704 149.962 225.276 149.962 362.038s-53.256 265.334-149.962 362.036zM512-23.204c-259.822 0-471.204 211.38-471.204 471.204s211.382 471.204 471.204 471.204 471.204-211.382 471.204-471.204-211.382-471.204-471.204-471.204zM924.262 363.738c-10.928 2.784-22.024-3.814-24.8-14.734-11.378-44.68-30.316-86.754-56.284-125.056-6.322-9.326-3.886-22.008 5.438-28.332 3.506-2.376 7.488-3.516 11.43-3.516 6.536 0 12.96 3.136 16.902 8.956 28.626 42.22 49.502 88.612 62.048 137.88 2.78 10.918-3.814 22.024-14.734 24.802zM932.208 468.398c-11.264 0-20.398-9.134-20.398-20.398 0-5.83-0.126-11.71-0.376-17.478-0.488-11.256 8.242-20.774 19.498-21.26 0.3-0.014 0.598-0.020 0.896-0.020 10.86 0 19.89 8.564 20.364 19.518 0.276 6.352 0.414 12.824 0.414 19.24 0 11.264-9.134 20.398-20.398 20.398zM512 614.246c-39.366 0-71.394-32.028-71.394-71.394v-354.932c0-39.366 32.028-71.394 71.394-71.394s71.394 32.028 71.394 71.394v354.932c0 39.368-32.028 71.394-71.394 71.394zM542.598 187.92c0-16.872-13.726-30.598-30.598-30.598s-30.598 13.726-30.598 30.598v354.932c0 16.872 13.726 30.598 30.598 30.598s30.598-13.726 30.598-30.598v-354.932zM562.47 758.586c-13.304 13.276-31.702 20.888-50.47 20.888-18.77 0-37.168-7.612-50.492-20.906-13.284-13.288-20.902-31.688-20.902-50.488 0-18.768 7.612-37.166 20.92-50.502 13.304-13.278 31.702-20.892 50.474-20.892 18.77 0 37.168 7.614 50.502 20.922 13.278 13.304 20.892 31.702 20.892 50.472 0 18.8-7.618 37.202-20.924 50.506zM533.654 686.454c-5.716-5.7-13.608-8.972-21.654-8.972-8.052 0-15.944 3.272-21.626 8.94-5.7 5.716-8.972 13.61-8.972 21.656 0 8.064 3.266 15.952 8.938 21.626 5.716 5.7 13.61 8.972 21.66 8.972 8.048 0 15.942-3.272 21.638-8.956 5.694-5.694 8.958-13.58 8.958-21.64 0.002-8.050-3.27-15.942-8.942-21.626z" />
<glyph unicode="&#xe91d;" glyph-name="warning" d="M559.335 206.973c0-26.146-21.195-47.341-47.341-47.341s-47.341 21.195-47.341 47.341c0 26.146 21.195 47.341 47.341 47.341s47.341-21.195 47.341-47.341zM505.633 329.823c14.39 0 26.069 11.679 26.069 26.069v247.655c0 14.39-11.679 26.069-26.069 26.069s-26.069-11.679-26.069-26.069v-247.655c0-14.39 11.679-26.069 26.069-26.069zM607.015 809.556l-1.186 1.838c-24.14 37.2-49.088 75.678-93.835 75.678-46.637 0-71.038-39.025-94.63-76.786-0.117-0.182-0.847-1.356-0.965-1.551l-412.775-699.442c-2.372-4.015-3.624-6.113-3.624-10.766 0-50.782 40.863-89.599 91.085-89.599h841.83c50.235 0 91.085 38.83 91.085 89.599 0 4.653-1.251 8.003-3.611 12.005l-413.375 699.025zM932.915 61.066h-841.83c-19.043 0-35.415 12.396-38.452 31.204l408.943 691.621c20.256 32.417 33.525 51.656 50.417 51.656 16.436 0 32.026-24.374 50.091-52.216l409.269-690.917c-3.024-18.796-19.395-31.348-38.439-31.348z" />
<glyph unicode="&#xe935;" glyph-name="price-tag" d="M976 960h-384c-26.4 0-63.274-15.274-81.942-33.942l-476.116-476.116c-18.668-18.668-18.668-49.214 0-67.882l412.118-412.118c18.668-18.668 49.214-18.668 67.882 0l476.118 476.118c18.666 18.666 33.94 55.54 33.94 81.94v384c0 26.4-21.6 48-48 48zM736 576c-53.020 0-96 42.98-96 96s42.98 96 96 96 96-42.98 96-96-42.98-96-96-96z" />
<glyph unicode="&#xe936;" glyph-name="price-tags" horiz-adv-x="1280" d="M1232 960h-384c-26.4 0-63.274-15.274-81.942-33.942l-476.116-476.116c-18.668-18.668-18.668-49.214 0-67.882l412.118-412.118c18.668-18.668 49.214-18.668 67.882 0l476.118 476.118c18.666 18.666 33.94 55.54 33.94 81.94v384c0 26.4-21.6 48-48 48zM992 576c-53.020 0-96 42.98-96 96s42.98 96 96 96 96-42.98 96-96-42.98-96-96-96zM128 416l544 544h-80c-26.4 0-63.274-15.274-81.942-33.942l-476.116-476.116c-18.668-18.668-18.668-49.214 0-67.882l412.118-412.118c18.668-18.668 49.214-18.668 67.882 0l30.058 30.058-416 416z" />
</font>
</defs>
</svg>
